[HÀI-KINH DỊ] The Babysitter 1080p BluRay H264 – BADUY ~ Cô giữ trẻ sát nhân

0
24
The Babysitter 2017 1080p BluRay H264 – BADUY
Cô giữ trẻ sát nhân

SUB VIỆT

[​IMG]

Cole (Judah Lewis) yêu điên dại người giữ trẻ của mình – Bee (Samara Weaving). Cô ấy nóng bỏng, vui tính và nổi tiếng. Một đêm, trong giây phút thách thức, Cole đã bí mật thức để khám phá ra cô ấy thực sự là một kẻ giết người máu lạnh đang ở trong cuộc chiến với ma quỷ. Bây giờ cậu ta phải dành cả đêm để trốn khỏi nhóm giết người của Bee, những người sẽ không dừng lại để ngăn Cole loan ra bí mật của họ. Đó là khi Cole cố sống sót qua một đêm dài.

INFORMATION

Mã:
File size                      : 8.10 GiB
Duration                       : 1h 25mn
Overall bit rate               : 13.6 Mbps
Video
ID                             : 1
Format                         : AVC
Format/Info                    : Advanced Video Codec


Format profile                 : High@L4.1
Format settings, CABAC         : Yes
Format settings, ReFrames      : 5 frames
Codec ID                       : V_MPEG4/ISO/AVC
Duration                       : 1h 25mn
Bit rate                       : 13.0 Mbps
Width                          : 1 920 pixels
Height                         : 800 pixels
Display aspect ratio           : 2.40:1
Frame rate mode                : Constant
Frame rate                     : 23.976 fps
Color space                    : YUV
Chroma subsampling             : 4:2:0
Bit depth                      : 8 bits
Scan type                      : Progressive
Bits/(Pixel*Frame)             : 0.352
Stream size                    : 7.71 GiB (95%)
Audio
ID                             : 2
Format                         : AC-3
Format/Info                    : Audio Coding 3
Mode extension                 : CM (complete main)
Format settings, Endianness    : Big
Codec ID                       : A_AC3
Duration                       : 1h 25mn
Bit rate mode                  : Constant
Bit rate                       : 384 Kbps
Channel(s)                     : 6 channels
Channel positions              : Front: L C R, Side: L R, LFE
Sampling rate                  : 48.0 KHz
Compression mode               : Lossy
Stream size                    : 234 MiB (3%)
Language                       : English
Default                        : Yes
Forced                         : No

DOWNLOAD

https://www.fshare.vn/file/KCMXHCZNZTUI
https://www.fshare.vn/file/PH3LJM8Z1W6T

Các Phim Thuyết Minh Kinh Điển Khác

https://www.fshare.vn/folder/D3YFVTBQHVS2
https://www.fshare.vn/folder/HK2CB7S4WWIN

LEAVE A REPLY

Please enter your comment!
Please enter your name here